#TITLE:Fool Love;
#SUBTITLE:;
#ARTIST:Lee Jun Ki;
#TITLETRANSLIT:Fool Love;
#SUBTITLETRANSLIT:;
#ARTISTTRANSLIT:Lee Jun Ki;
#CREDIT:;
#BANNER:Fool Love-bn.png;
#BACKGROUND:Fool Love-bg.png;
#LYRICSPATH:;
#CDTITLE:pm4cd.png;
#MUSIC:Fool Love.mp3;
#OFFSET:0.020;
#SAMPLESTART:59.369;
#SAMPLELENGTH:20.000;
#SELECTABLE:YES;
#BPMS:0.000=115.010;
#STOPS:;
#BGCHANGES:;
// cache tags:
#FIRSTBEAT:3.000;
#LASTBEAT:383.000;
#SONGFILENAME:Songs/Music V.I.P ^_^/Fool Love/Fool Love.sm;
#HASMUSIC:1;
#HASBANNER:1;
#MUSICLENGTH:202.475;
// end cache tags

//---------------dance-single - ----------------
#NOTES:
     dance-single:
     :
     Hard:
     11:
     0.787,0.922,0.973,0.049,0.546,901.000,197.000,10.000,0.000,25.000:
0000
0000
0000
1000
,
0010
0000
0110
0000
0000
0000
1000
0000
0011
0000
0000
0000
0001
0000
0000
1000
,
0110
0001
0000
0100
1010
0000
0001
0000
,
0011
0100
0000
1000
0011
0000
2100
0000
,
0001
0000
0000
0000
0000
0000
0000
0000
0000
0000
0000
3000
0111
0000
1000
0000
,
0010
0000
0100
0000
0001
0000
0010
0000
1000
0000
0100
0000
0010
0000
0001
1000
,
0010
0100
1000
0010
0100
0001
0010
1000
,
0100
0000
0001
0000
0010
0000
1000
0000
0010
0000
0100
0000
0010
0000
0001
0100
,
0010
1000
0010
0100
0001
1000
0010
0100
,
1000
0100
0010
0001
0100
0010
0001
0100
,
1000
0010
0100
0001
0010
1000
0100
0001
,
1000
0010
0100
0001
0010
1000
0001
0010
,
1000
0010
1000
0001
0100
0010
1001
0001
,
0010
0110
0001
1000
0011
0100
1010
0001
,
0100
0011
1000
0010
0101
1000
0011
1000
,
0100
0011
0100
0010
1001
0100
1010
0001
,
0100
1001
0010
1000
0110
0001
0110
1000
,
0100
1001
0010
0001
1010
0100
0011
1000
,
0010
0101
0010
1000
0101
0010
1100
0001
,
0010
1001
0100
0010
1100
0001
0110
0001
,
1000
0101
0010
0100
1000
0010
0101
0000
,
1000
0101
0000
1000
0011
0000
0001
0000
,
0010
1100
0000
0001
0110
0000
1000
0000
,
0100
0011
0000
1000
0110
0000
0001
0000
,
1000
0110
0000
0001
1010
0000
1000
0000
,
0010
1001
0000
0010
1100
0000
0100
0000
,
0001
1010
0000
1000
0101
0000
0001
0000
,
1000
0101
0000
0001
1010
0000
1000
0000
,
0010
0000
1001
0000
0000
0000
0010
0000
0101
0001
0001
0001
0001
0010
0100
1000
,
0100
0001
0010
0100
0001
1000
0010
0100
0001
1000
0010
0100
1000
0010
0100
0001
,
1000
0010
0100
0001
0010
1000
0100
0001
0010
1000
0010
0100
0001
0010
1000
0100
,
0001
0100
0010
1000
0100
0001
0010
1000
0010
0100
0001
1000
0010
1000
0010
0100
,
0001
0010
0100
1000
0100
0001
0010
1000
0001
0100
0010
1000
0011
0100
0010
1000
,
0100
0010
0101
0010
1000
0010
0100
0001
0110
1000
0010
0100
0011
1000
0100
0010
,
0100
0001
1100
0010
0001
0010
0100
0001
1010
0100
0010
0001
1100
0010
0100
0001
,
1000
0010
1001
0100
0001
0010
1100
0010
0000
0010
1000
0100
0011
1000
0010
0100
,
0001
1000
0110
0001
0100
0001
1010
0100
0010
1000
0100
0001
1000
0100
1000
0000
,
0010
0001
0010
0000
0100
0000
0010
0100
0010
0000
1000
0000
0110
0001
0100
0000
,
1001
0000
0001
0010
0001
0000
0010
0000
1000
0100
0010
0001
1010
0100
1000
0000
,
0100
0000
0001
1000
0001
0000
0010
0000
1100
0000
0010
0000
1001
0010
0001
0000
,
0100
0000
1000
0100
1000
0000
0010
0000
0100
0001
0000
0000
2010
0000
0001
0000
,
0100
0000
0011
0000
0010
0000
0100
0000
0101
0000
0100
0000
3120
0000
0000
0100
,
1001
0100
0001
0101
1000
0100
1032
0100
,
0010
0000
1100
0000
1000
0000
0110
0000
0010
0000
1000
0000
0213
0000
0000
1000
,
0011
0010
1000
1001
1000
0010
1310
0001
,
0010
0100
1001
0100
0010
0001
1010
0100
,
1000
0100
0000
0001
0010
0100
0000
0001
,
0010
0100
1010
0100
0010
0001
0011
0100
,
1000
0100
0000
0001
0010
1000
0101
0010
,
1000
0011
0100
0010
1001
0010
0110
0001
,
1000
1001
0100
0010
1100
0001
0110
1000
,
0100
0101
0010
0100
0011
1000
0110
0001
,
0100
1001
0001
1000
0010
1000
0011
0000
,
0010
1100
0000
0100
0011
0000
0100
0000
,
0001
1010
0000
0100
0011
0000
0010
0000
,
1000
0101
0000
0010
1001
0000
0010
0000
,
0100
1001
0000
0100
1001
0000
0100
0000
,
0100
1010
0000
0010
0101
0000
1000
0000
,
0100
0011
0000
0010
1100
0000
0010
0000
,
0100
1001
0000
0001
0110
0000
1000
0000
,
0010
0000
0101
0000
0000
0000
1000
0000
0110
0010
0010
0010
1101
0010
0100
0010
,
0100
0001
1010
0100
0001
0100
0010
0001
0100
1000
0001
0100
0011
1000
0010
0100
,
0001
0010
1100
0010
0100
1000
0010
0100
0001
0010
0100
0010
1100
0010
0001
1000
,
0010
0100
1001
0010
0001
0100
0001
0100
0010
1000
0001
0010
0101
1000
0100
0001
,
1000
0100
0011
1000
0010
0001
0100
0010
1000
0100
0010
0100
0011
1000
0100
0010
,
1000
0100
1010
0001
1000
0010
0100
1000
0001
0100
0010
0100
1001
0010
1000
0100
,
0010
0001
0110
1000
0010
0100
0001
0010
1000
0001
0100
1000
0110
1000
0010
1000
,
0001
1000
0011
0100
0001
1000
0100
1000
0001
0010
0001
0100
1010
0001
0100
0010
,
1000
0001
1010
0100
1000
0010
0100
1000
0100
1000
0010
0100
0011
0000
0010
0000
,
0101
0010
1000
0100
0011
0100
0001
0010
,
1100
0100
0001
0010
1001
0100
0010
1000
,
0101
0000
0010
0000
1000
0000
0010
0000
0101
0000
0010
0000
0001
0010
0100
1000
,
0101
0010
0001
1000
0001
0000
0010
0000
1100
0000
0010
0000
1101
0000
0010
0000
,
0110
0001
1000
0100
0011
0100
1000
0010
,
1001
0100
0010
0001
1010
0100
0010
0001
,
0110
1000
0001
0010
1100
0010
2012
0100
,
0010
0000
0100
0000
0010
0000
0100
0000
3013
0000
0100
0000
1011
0100
0010
0001
,
0100
1000
0110
0001
0100
0010
1001
0100
0010
0000
0001
0100
1010
0100
0001
0010
,
1000
0100
0011
0100
1000
0010
0101
0010
0100
1000
0010
0100
0011
1000
0010
0100
,
0010
0001
1010
0100
0001
0010
1100
0010
0100
0010
0001
0010
1100
0010
0100
0001
,
0100
1000
0101
0010
0100
0010
1001
0100
0010
1000
0100
0010
0101
1000
0010
0100
,
1000
0010
1001
0100
0010
0001
1010
0100
1000
0100
1000
0100
0011
1000
0100
0010
,
1000
0100
1010
0100
0010
0001
0100
0010
1000
0001
0100
0010
1001
0100
0010
0100
,
1000
0100
0011
0100
0010
1000
0101
0010
0100
0001
0010
0100
1001
0010
0100
0001
,
0010
1000
0110
1000
0100
0001
1010
0100
1000
0100
0001
1000
0111
0000
1000
0000
,
0010
0000
0101
0000
1000
0000
0110
0000
1000
0000
0001
0000
0110
0000
0000
1000
,
0100
0011
0100
1010
0100
0001
0110
1000
,
0010
0000
0101
0000
0010
0000
1100
0000
0100
0000
0010
0000
0101
0000
0000
0001
,
0110
1000
0010
0101
1000
0010
0101
0010
,
1000
0000
0101
0000
0010
0000
1100
0000
0010
0000
0100
0000
0011
0000
0000
1000
,
0101
0010
1000
0110
0001
1000
0110
0001
,
1000
0000
0101
0000
0010
0000
1100
0000
0010
0000
0100
0000
0011
0000
0000
0001
,
1100
0010
1000
0110
0001
1000
0110
0001
,
0010
0000
1001
0000
0100
0000
1010
0000
0100
0000
0001
0000
1100
0000
0000
0001
,
0010
1100
0010
0101
1000
0100
0222
0000
,
0000
0000
0000
0333
;
